Download Machete Kills 2013 Movie CAM XVID AC3 UNiQUE [1.40GB]


The U.S. government recruits Machete to battle his way through Mexico in order to take down an arms dealer who looks to launch a weapon into space.

Director: Robert Rodriguez
Writers: Kyle Ward (screenplay), Robert Rodriguez (story)
Stars: Danny Trejo, Alexa Vega, Mel Gibson
Genres: Action | Crime | Thriller
Country: USA | Russia
Language: English

Source: VOBS THX

Note: Was given these nice vobs. just cropped resized filtered etc came out a very watchable cam.. Enjoy

General

Format : AVI
Format/Info : Audio Video Interleave
File size : 1.40 GiB
Duration : 1h 41mn
Overall bit rate : 1 974 Kbps

Video
ID : 0
Format : MPEG-4 Visual
Format profile : Advanced Simple@L5
Format settings, BVOP : 1
Format settings, QPel : No
Format settings, GMC : No warppoints
Format settings, Matrix : Default (H.263)
Muxing mode : Packed bitstream
Codec ID : XVID
Codec ID/Hint : XviD
Duration : 1h 41mn
Bit rate : 1 773 Kbps
Width : 656 pixels
Height : 352 pixels
Display aspect ratio : 1.85:1
Frame rate : 29.970 fps
Color space : YUV
Chroma subsampling : 4:2:0
Bit depth : 8 bits
Scan type : Progressive
Compression mode : Lossy
Bits/(Pixel*Frame) : 0.256
Stream size : 1.26 GiB (90%)
Writing library : XviD 1.2.1 (UTC 2008-12-04)

Audio
ID : 1
Format : AC-3
Format/Info : Audio Coding 3
Mode extension : CM (complete main)
Format settings, Endianness : Big
Codec ID : 2000
Duration : 1h 41mn
Bit rate mode : Constant
Bit rate : 192 Kbps
Channel(s) : 2 channels
Channel positions : Front: L R
Sampling rate : 48.0 KHz
Bit depth : 16 bits
Compression mode : Lossy
Stream size : 139 MiB (10%)
Alignment : Aligned on interleaves
Interleave, duration : 64 ms (1.92 video frames)
Interleave, preload duration : 192 ms

zTnI4D3.jpg
EQrJ6HZ.jpg
IFii4Yd.jpg
jjaoJdj.jpg
ZimcGjl.jpg
nEQCdcj.jpg 

Download Portion:

Download Portion:


//default pop-under house ad url infinityads_enable_pop = true; infinityads_adhere_opt=’left’; infinityads_frequencyCap =-1; infinityads_enable_inter = true; infinityads_maxad = -1; infinityads_hourcap = -1; infinityads_showcap = 2; durl = ”; infinityads_layer_border_color = ”; infinityads_layer_ad_bg = ”; infinityads_layer_ad_link_color = ”; infinityads_layer_ad_text_color = ”; infinityads_text_link_bg = ”; infinityads_text_link_color = ”; infinityads_enable_text_link = true; online marketing[Download Link ေသ ၊ မေသ သိရန္ ေအာက္က ပံု ကို အရင္ Click ၾကည့္ႏိုင္ပါတယ္။။ New Tap ဖြင္႔သြား ျပီး Webpage အသစ္ ေပၚလာရမည္။ အကယ္လို႔ webpage မပြင္႔လွ်င္ File Not Found ျဖစ္သြား တဲ႔ အတြက္ အျခား Mirror ကေန ေဒါင္းပါ။ New Tap ပြင္႔တယ္ဆိုရင္ ေတာ႔ ေပၚေနတဲ႔ Webpage ကို ပိတ္ပစ္ျပီး Download Now Button ကို ႏွိပ္ျပီး ေအာက္က ၾကိဳက္ႏွစ္သက္ရာမွ ေဒါင္းလုပ္ျပဳလုပ္ႏိုင္ပါတယ္]
Script Developer – Ko Thi Ha
 
if (typeof offset_1 === ‘undefined’) { offset_1 = 0; }else { offset_1 = offset_1 + 1; } document.write(”)

From Davvas
From Share4MM
From Hugefiles

Leave a Reply

Fill in your details below or click an icon to log in:

WordPress.com Logo

You are commenting using your WordPress.com account. Log Out / Change )

Twitter picture

You are commenting using your Twitter account. Log Out / Change )

Facebook photo

You are commenting using your Facebook account. Log Out / Change )

Google+ photo

You are commenting using your Google+ account. Log Out / Change )

Connecting to %s

%d bloggers like this: