Dragonwolf 2013 BRRip x264 AC3-MiLLENiUM


Dragonwolf 2013 BRRip x264 AC3-MiLLENiUM

The Devil’s Cauldron, a city where depravity and violence has forged a society in which only the lethal and callous can survive, two young men who possess the intellect and ferocity to flourish, carve a name for themselves as the most efficient and unstoppable hit men. Side by side, these two brothers are the deadliest killers, feared by even the most evil criminals.

General

Source……………: DL.720p.BluRay.x264-LeetHD [THANKS]
IMDb Information…. : http://www.imdb.com/title/tt2164468/
Sample Included……: yes

General
Complete name : Dragonwolf 2013 BRRip x264 AC3-MiLLENiUM.mkv
Format : Matroska
Format version : Version 2
File size : 1.07 GiB
Duration : 2h 1mn
Overall bit rate mode : Variable
Overall bit rate : 1 266 Kbps
Encoded date : UTC 2013-12-07 19:53:35
Writing application : mkvmerge v6.5.0 (‘Isn’t she lovely’) built on Oct 20 2013 12:50:05
Writing library : libebml v1.3.0 + libmatroska v1.4.1

Video
ID : 1
Format : AVC
Format/Info : Advanced Video Codec
Format profile : High@L4.1
Format settings, CABAC : Yes
Format settings, ReFrames : 3 frames
Codec ID : V_MPEG4/ISO/AVC
Duration : 2h 1mn
Bit rate mode : Variable
Bit rate : 793 Kbps
Maximum bit rate : 40.0 Mbps
Width : 720 pixels
Height : 384 pixels
Display aspect ratio : 1.85:1
Frame rate mode : Constant
Frame rate : 23.976 fps
Color space : YUV
Chroma subsampling : 4:2:0
Bit depth : 8 bits
Scan type : Progressive
Bits/(Pixel*Frame) : 0.120
Stream size : 689 MiB (63%)
Writing library : x264 core 140 r2377 1ca7bb9

Audio
ID : 2
Format : AC-3
Format/Info : Audio Coding 3
Mode extension : CM (complete main)
Format settings, Endianness : Big
Codec ID : A_AC3
Duration : 2h 1mn
Bit rate mode : Constant
Bit rate : 448 Kbps
Channel(s) : 6 channels
Channel positions : Front: L C R, Side: L R, LFE
Sampling rate : 48.0 KHz
Bit depth : 16 bits
Compression mode : Lossy
Stream size : 389 MiB (35%)
Language : English
Default : Yes
Forced : No

ဒီေကာင္ေလးကေတာ့ Dragonwolf 2013 BRRip x264 AC3-MiLLENiUM ကားေလးပါ။ အၾကည္ထြတ္လို႕တင္ေပးလိုက္ပါတယ္။ ဖိုင္ဆိုဒ္ကေတာ့ 1.1 GB ရိွပါတယ္။ အက္ရွင္ကားၾကည့္သူမ်ားအတြက္ အရမ္းေကာင္းတဲ့ကားေလးပါ။

Download

Davvas

Filedap
 

Afilez
 

Hugefiles
 

Billionuploads

Dragonwolf 2013 BRRip x264 AC3-MiLLENiUM Trail Watch

ေဒါင္းနည္းမ်ားမသိပါက ဒီမွာ သြားၾကည့္ေပးပါခင္ဗ်ာ

Leave a Reply

Fill in your details below or click an icon to log in:

WordPress.com Logo

You are commenting using your WordPress.com account. Log Out / Change )

Twitter picture

You are commenting using your Twitter account. Log Out / Change )

Facebook photo

You are commenting using your Facebook account. Log Out / Change )

Google+ photo

You are commenting using your Google+ account. Log Out / Change )

Connecting to %s

%d bloggers like this: